1000000-DvD.ru
Ещё у нас можно музыку слушать онлайн бесплатно!
►3000 Новинок за месяц! Обновляем всё!!!
КорзинаКорзина
на сумму: руб.
Вы пока ничего не выбрали
ИзбранноеИзбранное
Онлайн 18+ ❤ Наша ХХХ гр.Вконтакте ►СЮДА!
В продаже (миллион) Игр, Кино, Музыки, Программ и всё в наличии!
Скидка! 20-50%

New! Поиск:
Также можно уточнить категорию

Ancient - Svartalvheim

Купить недорого Ancient - Svartalvheim в интернет магазине двд сд дисков 1000000-DvD.ru
Увеличить
Поделитесь интересным товаром с друзьями:
Количество CD: 1 шт.

Рок-музыкаЗарубежный MetalBlack (lossless)
распродажа 50%
для вступивших в одну из наших групп
(Группа ВК) . . . (Группа ОК) Музыка

Стоимость: 160 руб. 80 руб.
Добавить в избранное
Удалить из избранного
Купить (добавить в корзину) - Сейчас в наличии!
В корзине × Оформить заказ
1 Ancient — Trolltaar
Купить Ancient - Svartalvheim в интернет магазине двд сд дисков 1000000-DvD.ru у нас недорого! Если заказать двд сд по предоплате, то на 20% будет ещё дешевле!

Ancient - Svartalvheim
Жанр: Black Metal
Год выпуска диска: 1994
Производитель диска: Норвегия
Аудио кодек: FLAC
Тип рипа: image+.cue
Битрейт аудио: lossless
Продолжительность: 48:52
Трэклист:
01. Svartalvheim (1:23)
02. Trumps Of An Archangel (3:50)
03. Huldradans (5:53)
04. The Call Of The Absu Deep (5:29)
05. Det Glemte Riket (6:59)
06. Paa Evig Vandring (9:16)
07. Ved Trolltjern (4:21)
08. Eerily Howling Winds (4:20)
09. Likferd (7:21)
Доп. информация: "Ancient" появился на свет как сольный проект гитариста и автора песен Афазеля (Магнус Гарсет). В начале 90-х он играл в одной дэтовой команде, но данное направление ему не слишком нравилось, и Магнус пошел самостоятельным путем. Первые демки Афазель записывал в одиночестве, а в качестве ударных использовал драм-машину. Прошло не так уж много времени, и к нему присоединился давний приятель Гримм, взявший на себя функции вокалиста и барабанщика. Таким образом, на свет появилась команда, исполнявшая мрачный атмосферный блэк-метал. В 1993-м вышла первая официальная демка "Eerily Howling Winds", а на следующий год появилась еще одна, "Det Glemte Riket".
С помощью этих двух релизов "Ancient" застолбили место в блэк-андеграунде и обратили на себя внимание французского лейбла "Listenable Records" (подразделение "Osmose Productions"). Под занавес 1994-го вышел дебютный альбом, "Svartalvheim", ставший одним из самых хорошо продаваемых релизов в данном жанре и впоследствии занесенный в классику блэка.

log

Exact Audio Copy V0.99 prebeta 4 from 23. January 2008
Отчёт EAC об извлечении, выполненном 31. июля 2008, 16:57
Ancient / Svartalvheim
Дисковод: _NEC DVD_RW ND-3520A Adapter: 1 ID: 0
Режим чтения : Достоверность
Использование точного потока : Да
Отключение кэша аудио : Да
Использование указателей C2 : Нет
Коррекция смещения при чтении : 48
Способность читать области Lead-in и Lead-out : Нет
Заполнение пропущенных сэмплов тишиной : Да
Удаление блоков с тишиной в начале и конце : Нет
При вычислениях CRC использовались нулевые сэмплы : Нет
Интерфейс : Встроенный Win32-интерфейс для Win NT/2000
Выходной формат : Внутренние WAV-операции
Формат сэмплов : 44.100 Гц; 16 бит; стерео
TOC извлечённого CD
Трек | Старт | Длительность | Начальный сектор | Конечный сектор
---------------------------------------------------------------------
1 | 0:00.00 | 1:22.73 | 0 | 6222
2 | 1:22.73 | 3:50.36 | 6223 | 23508
3 | 5:13.34 | 5:52.70 | 23509 | 49978
4 | 11:06.29 | 5:29.26 | 49979 | 74679
5 | 16:35.55 | 6:59.01 | 74680 | 106105
6 | 23:34.56 | 9:15.51 | 106106 | 147781
7 | 32:50.32 | 4:21.20 | 147782 | 167376
8 | 37:11.52 | 4:20.00 | 167377 | 186876
9 | 41:31.52 | 7:20.46 | 186877 | 219922
Характеристики диапазона извлечения и сообщения об ошибках
Выбранный диапазон
Имя файла F:\Мusic\Lossless\Ancient - Svartalvheim.wav
Пиковый уровень 100.0 %
Качество диапазона 99.9 %
CRC копии 13FFC890
Копирование... OK
Ошибок не произошло
Конец отчёта

Купить     Ancient - Svartalvheim     в интернет магазине 1000000-DvD.ru (положить в корзину!)
В корзине × Оформить заказ
Преимущества: Купить Ancient - Svartalvheim в интернет-магазине двд сд дисков 1000000-DvD.ru можно дёшево, если выбрать предоплату со скидкой 20%! Ещё дешевле диски выходят, если в заказе их больше 5-10 шт
Товары из этой серии:
Похожие товары:
 
У нас можно редкую музыку слушать онлайн бесплатно! А так же в продаже более 1000000 DVD CD MP3 дисков и все в наличии!
Пишите нам
+

Введите адрес электронной почты: