1000000-DvD.ru
Ещё у нас можно музыку слушать онлайн бесплатно!
►3000 Новинок за месяц! Обновляем всё!!!
КорзинаКорзина
на сумму: руб.
Вы пока ничего не выбрали
ИзбранноеИзбранное
Онлайн 18+ ❤ Наша ХХХ гр.Вконтакте ►СЮДА!
В продаже (миллион) Игр, Кино, Музыки, Программ и всё в наличии!
Скидка! 20-50%

New! Поиск:
Также можно уточнить категорию

Алла Пугачева - Не делайте мне больно, господа

Купить недорого Алла Пугачева - Не делайте мне больно, господа в интернет магазине двд сд дисков 1000000-DvD.ru
Увеличить
Поделитесь интересным товаром с друзьями:
Количество CD: 1 шт.

распродажа 50%
для вступивших в одну из наших групп
(Группа ВК) . . . (Группа ОК)
Популярная музыкаОтечественная поп-музыкаОтечественная поп-музыка (lossless)
распродажа 50%
для вступивших в одну из наших групп
(Группа ВК) . . . (Группа ОК) Музыка

Стоимость: 160 руб. 80 руб.
Добавить в избранное
Удалить из избранного
Купить (добавить в корзину) - Сейчас в наличии!
В корзине × Оформить заказ
Купить Алла Пугачева - Не делайте мне больно, господа в интернет магазине двд сд дисков 1000000-DvD.ru у нас недорого! Если заказать двд сд по предоплате, то на 20% будет ещё дешевле!

Алла Пугачева - Не делайте мне больно, господа
Жанр: Pop
Год выпуска диска: 1995
Производитель диска: Россия
Аудио кодек: APE
Тип рипа: image+.cue
Битрейт аудио: lossless
Продолжительность: 01:15:48
Трэклист:
1. Мэри
2. Не делайте мне больно, господа
3. Бессонница
4. Настоящий полковник
5. Куда все уходят?
6. Ах, как живется мне сегодня!
7. Так иди же сюда
8. Бежала, голову сломя
9. Сильная женщина
10. Я тебя никому не отдам
11. Ты мне должен закаты
12. Большак
13. Любовь, похожая на сон
14. Здесь родился я (Can no laditi) на иврите в дуэте с Ф. Киркоровым
15. Да, да, нет, да
16. Две рюмки
17. Колдун
18. Грабитель
Доп. информация:

Отчёт EAC об извлечении

Отчёт EAC об извлечении, выполненном 1. августа 2008, 22:24
Алла Пугачева / Не делайте мне больно, господа
Дисковод: _NEC DVD_RW ND-4571A Adapter: 1 ID: 0
Режим чтения : Достоверность
Использование точного потока : Да
Отключение кэша аудио : Да
Использование указателей C2 : Нет
Коррекция смещения при чтении : 48
Способность читать области Lead-in и Lead-out : Нет
Заполнение пропущенных сэмплов тишиной : Да
Удаление блоков с тишиной в начале и конце : Нет
При вычислениях CRC использовались нулевые сэмплы : Да
Интерфейс : Установленный внешний ASPI-интерфейс
Выходной формат : Внутренние WAV-операции
Формат сэмплов : 44.100 Гц; 16 бит; стерео
TOC извлечённого CD
Трек | Старт | Длительность | Начальный сектор | Конечный сектор
---------------------------------------------------------------------
1 | 0:00.00 | 4:36.28 | 0 | 20727
2 | 4:36.28 | 3:26.52 | 20728 | 36229
3 | 8:03.05 | 3:59.45 | 36230 | 54199
4 | 12:02.50 | 4:45.38 | 54200 | 75612
5 | 16:48.13 | 5:20.22 | 75613 | 99634
6 | 22:08.35 | 3:51.55 | 99635 | 117014
7 | 26:00.15 | 3:34.63 | 117015 | 133127
8 | 29:35.03 | 3:37.45 | 133128 | 149447
9 | 33:12.48 | 4:02.32 | 149448 | 167629
10 | 37:15.05 | 5:21.10 | 167630 | 191714
11 | 42:36.15 | 3:28.00 | 191715 | 207314
12 | 46:04.15 | 5:36.13 | 207315 | 232527
13 | 51:40.28 | 4:58.67 | 232528 | 254944
14 | 56:39.20 | 3:15.20 | 254945 | 269589
15 | 59:54.40 | 3:31.55 | 269590 | 285469
16 | 63:26.20 | 5:50.00 | 285470 | 311719
17 | 69:16.20 | 3:20.30 | 311720 | 326749
18 | 72:36.50 | 3:11.53 | 326750 | 341127
Характеристики диапазона извлечения и сообщения об ошибках
Выбранный диапазон
Имя файла G:\Пугачева - Не делайте мне больно, господа\Алла Пугачева - Не делайте мне больно, господа.wav
Пиковый уровень 98.0 %
Качество диапазона 99.9 %
CRC копии 2F621D6C
Копирование... OK
Ошибок не произошло
Конец отчёта

P.S. Извините, с обложками напряг, т.к. у меня коллекционное издание и обложка разворачивается таким образом, что ее соверщенно невозможно сосканировать.

Купить     Алла Пугачева - Не делайте мне больно, господа     в интернет магазине 1000000-DvD.ru (положить в корзину!)
В корзине × Оформить заказ
Преимущества: Купить Алла Пугачева - Не делайте мне больно, господа в интернет-магазине двд сд дисков 1000000-DvD.ru можно дёшево, если выбрать предоплату со скидкой 20%! Ещё дешевле диски выходят, если в заказе их больше 5-10 шт
Товары из этой серии:
Похожие товары:
 
У нас можно редкую музыку слушать онлайн бесплатно! А так же в продаже более 1000000 DVD CD MP3 дисков и все в наличии!
Пишите нам
+

Введите адрес электронной почты: