1000000-DvD.ru
Ещё у нас можно музыку слушать онлайн бесплатно!
►30.000 Новинок за осень! Лидер DVD/CD продаж Рунета!!
КорзинаКорзина
на сумму: руб.
Вы пока ничего не выбрали
ИзбранноеИзбранное
Онлайн 18+ ❤ Наша ХХХ гр.Вконтакте ►СЮДА!
В продаже (миллион) Игр, Кино, Музыки, Программ и всё в наличии!
Скидка! 20-50%

New! Поиск:
Также можно уточнить категорию

Ирина Круг & Алексей Брянцев - 2 СD

Купить недорого Ирина Круг & Алексей Брянцев - 2 СD в интернет магазине двд сд дисков 1000000-DvD.ru
Увеличить
Поделитесь интересным товаром с друзьями:
Количество CD: 1 шт.

Шансон, Авторская и Военная песняОтечественный шансонОтечественный шансон (lossless)
распродажа 50%
для вступивших в одну из наших групп
(Группа ВК) . . . (Группа ОК) Музыка

Стоимость: 160 руб.
Добавить в избранное
Удалить из избранного
Купить (добавить в корзину) - Сейчас в наличии!
В корзине × Оформить заказ
Купить Ирина Круг & Алексей Брянцев - 2 СD в интернет магазине двд сд дисков 1000000-DvD.ru у нас недорого! Если заказать двд сд по предоплате, то на 20% будет ещё дешевле!

ИРИНА КРУГ & АЛЕКСЕЙ БРЯНЦЕВ
Жанр: шансон || Страна: Россия || Года выпуска: 2007-2010 || Аудио кодек: FLAC || Тип рипа: image+.cue || Битрейт аудио: lossless || Продолжительность: 01:27:52Производитель диска: (с)&(р) "Artur-Music" ПРИВЕТ, МАЛЫШ!
01. ПРИВЕТ, МАЛЫШ!
02. ТВОИ ГЛАЗА - МАГНИТ
03. КАК БУДТО МЫ С ТОБОЙ
04. ТЫ ПРОСТО ДОЖДЬ
05. ВЕРНЕТСЯ К НАМ ЛЮБОВЬ
06. ПОСЛЕДНЕЕ СВИДАНИЕ
07. НА НУЛЕ
08. НАЗОВИ МЕНЯ ЛЮБИМОЙ
09. ТЫ
10. ЛЮБИМЫЙ ВЗГЛЯД
11. ПТИЦА
12. ДВА СЕРДЦА
13. КОГДА ЗИМА В ДУШЕ ПРОЙДЕТЕСЛИ БЫ НЕ ТЫ...
01. ТОЛЬКО ТЫ
02. ЗАХОДИ КО МНЕ ВО СНЕ
03. РОМАН
04. Я ВСЕ ОТДАМ ЗА ТВОЮ ЛЮБОВЬ
05. ПРОСТО ТЫ ОДНА
06. МНЕ НЕ ХВАТАЕТ ТВОИХ ГЛАЗ
07. ЕСЛИ БЫ НЕ ТЫ
08. ДЕНЬ РОЖДЕНИЯ
09. В СЕРДЦЕ ТВОЕМ
10. Я ЖДАЛ ТЕБЯ
11. Я БУДУ ПОМНИТЬ (МАЛЫШ, ПРИВЕТ)

Отчёты EAC

Exact Audio Copy V0.99 prebeta 4 from 23. January 2008
EAC extraction logfile from 31. October 2010, 11:38
И.КРУГ & А.БРЯНЦЕВ / ПРИВЕТ, МАЛЫШ!
Used drive : ASUS DRW-2014L1 Adapter: 0 ID: 0
Read mode : Secure
Utilize accurate stream : Yes
Defeat audio cache : Yes
Make use of C2 pointers : No
Read offset correction : 6
Overread into Lead-In and Lead-Out : No
Fill up missing offset samples with silence : Yes
Delete leading and trailing silent blocks : No
Null samples used in CRC calculations : Yes
Used interface : Installed external ASPI interface
Used output format : User Defined Encoder
Selected bitrate : 128 kBit/s
Quality : High
Add ID3 tag : No
Command line compressor : C:\Program Files\Exact Audio Copy\Flac\flac.exe
Additional command line options : -T "DATE=%y" -T "GENRE=%m" -8 -V %s
TOC of the extracted CD
Track | Start | Length | Start sector | End sector
---------------------------------------------------------
1 | 0:00.00 | 3:16.69 | 0 | 14768
2 | 3:16.69 | 2:39.68 | 14769 | 26761
3 | 5:56.62 | 3:31.37 | 26762 | 42623
4 | 9:28.24 | 3:49.59 | 42624 | 59857
5 | 13:18.08 | 4:09.49 | 59858 | 78581
6 | 17:27.57 | 3:48.34 | 78582 | 95715
7 | 21:16.16 | 3:22.72 | 95716 | 110937
8 | 24:39.13 | 3:35.73 | 110938 | 127135
9 | 28:15.11 | 3:41.61 | 127136 | 143771
10 | 31:56.72 | 3:47.72 | 143772 | 160868
11 | 35:44.69 | 3:22.69 | 160869 | 176087
12 | 39:07.63 | 3:41.27 | 176088 | 192689
13 | 42:49.15 | 3:53.66 | 192690 | 210230
Range status and errors
Selected range
Filename C:\Users\ГРЕХОВСКИЙ\Desktop\И.КРУГ и А.БРЯНЦЕВ\И.КРУГ и А.БРЯНЦЕВ - ПРИВЕТ, МАЛЫШ!.wav
Peak level 98.8 %
Range quality 100.0 %
Test CRC 6AACF677
Copy CRC 6AACF677
Copy OK
No errors occurred
AccurateRip summary
Track 1 cannot be verified as accurate (confidence 1) [45FB3E57], AccurateRip returned [6BEC6A7A]
Track 2 cannot be verified as accurate (confidence 1) [E3F10223], AccurateRip returned [D25392CB]
Track 3 cannot be verified as accurate (confidence 1) [16CA2BF1], AccurateRip returned [DAB57FE9]
Track 4 cannot be verified as accurate (confidence 1) [3BB6759C], AccurateRip returned [39F8F836]
Track 5 cannot be verified as accurate (confidence 1) [4EADFC0E], AccurateRip returned [95863564]
Track 6 cannot be verified as accurate (confidence 1) [B0923731], AccurateRip returned [1AE2909F]
Track 7 cannot be verified as accurate (confidence 1) [EF8940A0], AccurateRip returned [14EAB394]
Track 8 cannot be verified as accurate (confidence 1) [BF1BD461], AccurateRip returned [29CC14D1]
Track 9 cannot be verified as accurate (confidence 1) [F568C6E0], AccurateRip returned [D169C12C]
Track 10 cannot be verified as accurate (confidence 1) [0DE04B66], AccurateRip returned [DC3C6714]
Track 11 cannot be verified as accurate (confidence 1) [7A3E246F], AccurateRip returned [0FB0D2DD]
Track 12 cannot be verified as accurate (confidence 1) [F4F785BF], AccurateRip returned [36EECF29]
Track 13 cannot be verified as accurate (confidence 1) [4452A9DE], AccurateRip returned [BC8BE80C]
No tracks could be verified as accurate
You may have a different pressing from the one(s) in the database
End of status report
EAC extraction logfile from 27. November 2010, 15:45
ИРИНА КРУГ & АЛЕКСЕЙ БРЯНЦЕВ / ЕСЛИ БЫ НЕ ТЫ...
Used drive : ASUS DRW-2014L1 Adapter: 0 ID: 0
Read mode : Secure
Utilize accurate stream : Yes
Defeat audio cache : Yes
Make use of C2 pointers : No
Read offset correction : 6
Overread into Lead-In and Lead-Out : No
Fill up missing offset samples with silence : Yes
Delete leading and trailing silent blocks : No
Null samples used in CRC calculations : Yes
Used interface : Installed external ASPI interface
Used output format : User Defined Encoder
Selected bitrate : 128 kBit/s
Quality : High
Add ID3 tag : No
Command line compressor : C:\Program Files\Exact Audio Copy\Flac\flac.exe
Additional command line options : -T "DATE=%y" -T "GENRE=%m" -8 -V %s
TOC of the extracted CD
Track | Start | Length | Start sector | End sector
---------------------------------------------------------
1 | 0:00.00 | 3:14.16 | 0 | 14565
2 | 3:14.16 | 3:59.50 | 14566 | 32540
3 | 7:13.66 | 3:19.56 | 32541 | 47521
4 | 10:33.47 | 3:40.12 | 47522 | 64033
5 | 14:13.59 | 4:18.23 | 64034 | 83406
6 | 18:32.07 | 4:07.64 | 83407 | 101995
7 | 22:39.71 | 3:28.18 | 101996 | 117613
8 | 26:08.14 | 3:17.39 | 117614 | 132427
9 | 29:25.53 | 3:40.41 | 132428 | 148968
10 | 33:06.19 | 3:40.36 | 148969 | 165504
11 | 36:46.55 | 4:22.46 | 165505 | 185200
Range status and errors
Selected range
Filename C:\Users\ГРЕХОВСКИЙ\Desktop\ИРИНА КРУГ & АЛЕКСЕЙ БРЯНЦЕВ\ЕСЛИ БЫ НЕ ТЫ\ИРИНА КРУГ & АЛЕКСЕЙ БРЯНЦЕВ - ЕСЛИ БЫ НЕ ТЫ....wav
Peak level 65.0 %
Range quality 100.0 %
Test CRC 9984AEAA
Copy CRC 9984AEAA
Copy OK
No errors occurred
AccurateRip summary
Track 1 not present in database
Track 2 not present in database
Track 3 not present in database
Track 4 not present in database
Track 5 not present in database
Track 6 not present in database
Track 7 not present in database
Track 8 not present in database
Track 9 not present in database
Track 10 not present in database
Track 11 not present in database
None of the tracks are present in the AccurateRip database
End of status report

Audiochecker log

AUDIOCHECKER v2.0 beta (build 457) - by Dester - opdester@freemail.hu
~~~~~~~~~~~~~~~~~~~~~~~~~~~~~~~~~~
Начато: воскресенье, 31. 10. 2010. - 11:52.57
Найдено файлов: 1
1 -===- E:\ФАЙЛЫ ТОРРЕНТЫ\И.КРУГ и А.БРЯНЦЕВ\И.КРУГ и А.БРЯНЦЕВ - ПРИВЕТ, МАЛЫШ!.flac
  Извлечение успешно выполнено
  Заключение: этот трек - CDDA с вероятностью 100%
  Временный файл удалён.
Завершено: воскресенье, 31. 10. 2010. - 11:57.02 (Время операции: 0:04.04)
~~~~~~~~~~~~~~~~~~~~~~~~~~~~~~~~~~
Начато: суббота, 27. 11. 2010. - 16:03.58
Найдено файлов: 1
1 -===- E:\ФАЙЛЫ ТОРРЕНТЫ\ИРИНА КРУГ & АЛЕКСЕЙ БРЯНЦЕВ\ЕСЛИ БЫ НЕ ТЫ\ИРИНА КРУГ & АЛЕКСЕЙ БРЯНЦЕВ - ЕСЛИ БЫ НЕ ТЫ....flac
  Извлечение успешно выполнено
  Заключение: этот трек - CDDA с вероятностью 100%
  Временный файл удалён.
Завершено: суббота, 27. 11. 2010. - 16:08.15 (Время операции: 0:04.17)

Tau Analyzer

    

Диски из личной коллекции!
Рипы сняты в режиме Test&Copy!!!

Купить     Ирина Круг & Алексей Брянцев - 2 СD     в интернет магазине 1000000-DvD.ru (положить в корзину!)
В корзине × Оформить заказ
Преимущества: Купить Ирина Круг & Алексей Брянцев - 2 СD в интернет-магазине двд сд дисков 1000000-DvD.ru можно дёшево, если выбрать предоплату со скидкой 20%! Ещё дешевле диски выходят, если в заказе их больше 5-10 шт
Товары из этой серии:
Похожие товары:
 
У нас можно редкую музыку слушать онлайн бесплатно! А так же в продаже более 1000000 DVD CD MP3 дисков и все в наличии!
Пишите нам
+

Введите адрес электронной почты: